<?xml version="1.0" standalone="no"?>
<!DOCTYPE svg PUBLIC "-//W3C//DTD SVG 1.1//EN" "http://www.w3.org/Graphics/SVG/1.1/DTD/svg11.dtd" >
<!--
2013-9-30: Created.
-->
<svg>
<metadata>
Created by iconfont
</metadata>
<defs>

<font id="iconfont" horiz-adv-x="1024" >
  <font-face
    font-family="iconfont"
    font-weight="500"
    font-stretch="normal"
    units-per-em="1024"
    ascent="896"
    descent="-128"
  />
    <missing-glyph />
    
    <glyph glyph-name="tongfeng" unicode="&#58985;" d="M318.574 747.834c17.962-3.529 36.201-5.729 53.613-10.814 85.417-24.928 133.44-83.902 150.76-169.457 10.632-52.697 4.858-104.57-9.255-158.459-63.696 28.364-120.884 24.745-169.274-34.413-16.131 52.878-57.922 77.534-98.521 103.699-37.668 24.241-69.286 53.659-80.009 99.849-17.78 76.022 44.724 160.75 122.716 166.296 7.515 0.503 14.939 2.152 22.362 3.299C313.532 747.834 316.099 747.834 318.574 747.834zM524.141 155.788c60.67 43.854 84.957 94.901 58.471 165.976 56.547-13.198 99.894 14.938 145.812 36.108 22.636 10.448 47.656 19.063 72.218 21.445 67.181 6.554 125.282-41.791 138.389-110.022 15.03-78.039-25.294-131.79-82.026-173.49-78.541-57.738-162.49-48.572-243.599-3.39C582.794 109.461 555.85 133.014 524.141 155.788zM302.626 275.022c8.157-72.448 38.95-121.021 114.927-132.799-38.951-42.293-36.751-92.609-41.7-141.778-2.749-27.266-7.79-56.228-19.979-80.284-51.323-101.178-188.611-77.441-232.418-9.438C48.028 27.757 81.022 162.479 204.93 231.075 235.174 247.803 268.076 259.626 302.626 275.022zM448.347 194.831c-47.199-0.092-84.682 37.302-84.682 84.452-0.091 47.337 37.117 84.683 84.407 84.821 47.199 0.138 84.592-37.209 84.774-84.501C532.938 232.452 495.545 194.878 448.347 194.831z"  horiz-adv-x="1024" />

    
    <glyph glyph-name="dengji" unicode="&#58967;" d="M584.133 45.842h-424.026c-7.738 0-13.957-6.354-13.957-14.192 0-7.854 6.219-14.186 13.957-14.186h424.026c7.678 0 13.937 6.332 13.937 14.186 0 7.836-6.259 14.192-13.937 14.192v0zM584.133 163.321h-424.026c-7.738 0-13.957-6.371-13.957-14.207 0-7.854 6.219-14.204 13.957-14.204h424.026c7.678 0 13.937 6.349 13.937 14.204 0 7.837-6.259 14.207-13.937 14.207v0zM584.133 280.748h-424.026c-7.738 0-13.957-6.354-13.957-14.192 0-7.854 6.219-14.211 13.957-14.211h424.026c7.678 0 13.937 6.354 13.937 14.211 0 7.837-6.259 14.192-13.937 14.192v0zM160.107 367.093h193.94c7.715 0 13.954 6.349 13.954 14.186 0 7.854-6.237 14.186-13.954 14.186h-193.94c-7.738 0-13.957-6.332-13.957-14.186-0.001-7.837 6.219-14.186 13.957-14.186v0zM596.239 787.17c-6.523 6.534-15.319 10.209-24.491 10.209h-534.25c-19.264 0-34.879-15.871-34.879-35.479v-947.775c0-19.627 15.615-35.504 34.879-35.504h669.243c19.264 0 34.855 15.876 34.855 35.504v812.329c0 9.522-3.725 18.614-10.365 25.311l-134.993 135.405zM72.348-150.377v876.754h463.111v-115.696c0-11.748 9.371-21.311 20.937-21.311h115.472v-739.749l-599.52 0.001zM1000.44 751.666h-157.923c-11.549 0-20.919-9.539-20.919-21.287v-729.555c0-2.882 0.579-5.724 1.67-8.363l78.963-189.135c3.293-7.913 10.873-13.028 19.266-13.028 8.377 0 15.955 5.116 19.242 13.028l78.983 189.135c1.076 2.64 1.654 5.482 1.654 8.363v729.555c0 11.748-9.354 21.287-20.937 21.287v0zM979.524 5.124l-30.726-73.641h-54.574l-30.768 73.641-0.001 703.943h50.668l-0.063-0.389v-669.168c0-7.837 6.244-14.211 13.938-14.211 7.698 0 13.937 6.373 13.937 14.211v669.168l-0.057 0.389h37.647l0.001-703.943zM979.524 5.124z"  horiz-adv-x="1024" />

    
    <glyph glyph-name="tianqi" unicode="&#58900;" d="M913.040351 191.661549c-16.086373-20.204158-35.94056-37.20332-58.542324-49.969065-29.04143-16.408715-62.49024-25.882484-98.162694-25.882484L263.726985 115.810001c-31.877011 0-62.011332 7.516184-88.794325 20.812001C108.888478 169.411803 63.362608 237.560926 63.362608 316.168238c0 21.180392 3.304256 41.659819 9.397021 60.969607 15.461133 65.541739 59.730383 118.710682 113.25032 142.465712 2.548032 1.139963 5.105275 2.303462 7.706519 3.304256 11.099802 4.578272 26.76048 3.817955 32.005948 18.753109 2.040473 7.462972 4.589528 14.690584 7.396457 21.73707 15.210423 60.303434 65.062831 106.850563 127.143749 117.166513 2.819209 0.719384 5.638417 1.450025 8.480138 1.994424 54.022381 10.339486 61.179384 6.900154 94.698802 0 35.538401-7.321756 68.220754-28.105105 95.137801-56.122205 0.930185-0.959861 1.90028-1.859347 2.825348-2.854001 5.555529-5.724375 10.116405-12.251022 16.648169-16.075117 13.053294 4.233418 25.748431 11.871375 39.514969 14.538111 16.794501 3.285836 26.883277 3.285836 45.079708 0.403183 38.122249-6.064113 75.748195-25.659403 100.565417-60.881602 2.818185-3.450589 5.315052-7.134491 7.585769-10.982122 6.544043-11.128455 11.08036-23.695678 15.326057-36.490076 1.948375-5.870708 3.837398-11.777231 5.825682-17.625426 0 0 0.127913-0.022513 0.373507-0.033769 0.419556-0.059352 1.279133-0.147356 2.443655-0.298805 4.533246-0.48607 9.018398-1.210571 13.444197-2.27481 24.140817-4.854565 70.121034-18.22713 103.744829-51.730175 18.36016-22.63144 31.740912-49.378617 38.85596-78.582753 3.714602-15.21554 5.900384-31.03483 5.900384-47.379077C956.711989 269.116619 940.298158 225.889095 913.040351 191.661549z"  horiz-adv-x="1024" />

    
    <glyph glyph-name="dayin" unicode="&#58880;" d="M232.871745 136.910439c-2.560312 0-5.462408 0-8.364505 0-31.159674 0-62.320371-0.030699-93.480045 0.013303-15.096836 0.021489-20.615527 5.526877-20.620643 20.549012-0.023536 64.758909-0.089028 129.516796 0.01842 194.275705 0.085958 52.144614 38.939871 92.100628 91.179652 93.839225 10.486842 0.348947 20.996197 0.050142 32.380478 0.050142 0 4.01443 0 7.182586 0 10.350742-0.001023 82.371032-0.011256 164.741042 0.00307 247.112074 0.005117 32.836873 18.549471 51.543933 51.208289 51.553143 105.131409 0.027629 210.262818 0.186242 315.393203-0.100284 33.108049-0.090051 61.891605-12.142551 85.594447-35.335786 23.044856-22.549575 45.833885-45.367257 68.410066-68.38653 23.025413-23.476691 34.825157-52.046377 35.307134-84.809571 0.542352-36.842093 0.125867-73.698512 0.125867-110.547769 0-2.929726 0-5.858428 0-9.779737 10.600429 0 20.531616 0.166799 30.456662-0.028653 44.175105-0.86981 80.679507-29.41596 90.425476-71.175039 1.886977-8.085142 2.560312-16.617469 2.587941-24.947182 0.206708-63.945381 0.130983-127.890762 0.103354-191.836143-0.00614-15.106046-5.586229-20.756743-20.533662-20.780279-31.159674-0.050142-62.320371-0.01535-93.480045-0.01535-2.910283 0-5.819542 0-9.562796 0 0-25.069979-0.021489-49.373501 0.00921-73.678046 0.014326-11.366885-2.204202-22.029736-9.312086-31.273261-9.978259-12.974499-23.216771-18.7132-39.47813-18.681478-62.047148 0.122797-124.095319 0.049119-186.143491 0.049119-89.957825 0-179.914626-0.004093-269.87245 0.002047-32.763195 0.002047-51.199079 18.532075-51.245128 51.445696-0.032746 23.300682-0.084934 46.600341-0.159636 69.901023C233.819326 135.147282 233.435587 135.618003 232.871745 136.910439zM727.913515 569.449689c-3.297093 0-6.201236 0-9.105379 0-21.678742 0.001023-43.357484 0.01842-65.035202-0.00307-16.457834-0.016373-30.051433 5.871731-40.074717 19.243273-6.991228 9.326413-8.996908 20.054755-8.982582 31.394011 0.030699 24.041556 0.00921 48.084135 0.00921 72.481801-103.299691 0-205.822692 0-308.482817 0 0-102.991676 0-205.5157 0-308.008003 144.252405 0 287.953248 0 431.67251 0C727.913515 446.349023 727.913515 507.490545 727.913515 569.449689zM727.924771 198.127685c-144.331199 0-288.040229 0-431.570179 0 0-41.313941 0-82.050738 0-122.710786 144.16747 0 287.671838 0 431.570179 0C727.924771 116.433058 727.924771 156.97645 727.924771 198.127685zM820.879859 384.056282c-16.896832-0.004093-30.980595-14.244422-30.836309-31.182186 0.141216-16.60826 13.985526-30.549783 30.518061-30.735002 16.797571-0.188288 31.198559 13.982456 31.309076 30.80868C851.980181 369.854838 837.82888 384.060375 820.879859 384.056282z"  horiz-adv-x="1024" />

    
    <glyph glyph-name="baobiao" unicode="&#59035;" d="M922.631288 40.499645 138.638547 40.499645 138.638547 765.944945c0 21.083178-16.715707 38.180578-37.335327 38.180578-20.61348 0-37.329187-17.0974-37.329187-38.180578l0-763.624854c0-21.100574 16.715707-38.180578 37.329187-38.180578l821.328068 0c20.618597 0 37.334303 17.080004 37.334303 38.180578C959.965591 23.408385 943.248861 40.499645 922.631288 40.499645L922.631288 40.499645zM362.636181 116.855684c41.238216 0 74.66349 34.19787 74.66349 76.372412l0 76.355015c0 42.173518-33.426297 76.366272-74.66349 76.366272s-74.66349-34.192753-74.66349-76.366272l0-76.355015C287.971667 151.053554 321.397964 116.855684 362.636181 116.855684L362.636181 116.855684zM586.639954 116.855684c41.232077 0 74.658374 34.19787 74.658374 76.372412L661.298328 575.031824c0 42.183751-33.426297 76.366272-74.658374 76.366272-41.244356 0-74.670653-34.181497-74.670653-76.366272l0-381.804752C511.969301 151.053554 545.395598 116.855684 586.639954 116.855684L586.639954 116.855684zM810.636564 116.855684c41.232077 0 74.66349 34.19787 74.66349 76.372412L885.300055 422.321794c0 42.173518-33.431414 76.355015-74.66349 76.355015-41.244356 0-74.66963-34.181497-74.66963-76.355015l0-229.093698C735.967958 151.053554 769.393231 116.855684 810.636564 116.855684L810.636564 116.855684z"  horiz-adv-x="1024" />

    
    <glyph glyph-name="zongheyewu" unicode="&#59022;" d="M431.39072 864.8448c26.43456-12.96896 34.83648-34.9184 34.59072-63.91808-0.84992-101.10976-0.30208-202.22976-0.384-303.34464-0.01024-7.62368-0.24064-15.33952-1.408-22.84544-3.77344-24.27904-20.95104-40.42752-45.11232-40.50944-104.1664-0.3584-208.3328-0.16896-312.4992-0.11264-24.73984 0.01536-36.90496 16.50688-45.99296 36.86912 0 119.25504 0 238.50496 0 357.76 7.5264 16.40448 18.35008 29.46048 35.46624 36.10624C207.83104 864.8448 319.61088 864.8448 431.39072 864.8448zM963.41504 470.97856c-10.84928-28.12416-30.92992-37.88288-60.4928-37.48352-96.09728 1.30048-192.22528 0.44544-288.32768 0.512-38.37952 0.02048-56.07936 17.664-56.1664 57.01632-0.22016 105.48736 0.21504 210.97984-0.27648 316.4672-0.128 27.09504 11.17696 45.57824 34.4576 57.35424 111.77984 0 223.55456 0 335.3344 0 17.11616-6.65088 27.93984-19.69664 35.47136-36.10624C963.41504 709.48352 963.41504 590.22848 963.41504 470.97856zM60.58496 297.02144c10.81856 28.16 30.94528 37.86752 60.48768 37.46816 96.09728-1.28 192.21504-0.44544 288.32768-0.50176 38.37952-0.02048 56.07936-17.6384 56.1664-56.99584 0.22528-105.49248-0.21504-210.97984 0.2816-316.4672 0.12288-27.1104-11.18208-45.58848-34.4576-57.37472-111.77984 0-223.55968 0-335.33952 0-17.13152 6.62528-27.88352 19.75296-35.46624 36.10112C60.58496 58.51136 60.58496 177.7664 60.58496 297.02144zM592.60928-96.8448c-26.45504 12.95872-34.82624 34.96448-34.5856 63.92832 0.82944 101.10976 0.3072 202.22976 0.35328 303.34464 0.00512 6.54336 0.04608 13.14816 0.8704 19.61984 3.42528 27.05408 20.77696 43.70944 47.28832 43.79648 103.09632 0.3072 206.18752 0.04096 309.28384 0.18944 25.43104 0.03584 38.32832-15.88736 47.5904-37.01248 0-119.25504 0-238.51008 0-357.76512-7.5776-16.34816-18.33472-29.47584-35.47136-36.10112C816.16384-96.8448 704.38912-96.8448 592.60928-96.8448z"  horiz-adv-x="1024" />

    
    <glyph glyph-name="baobiao1" unicode="&#58890;" d="M557.32419 869.302857l0-395.800381L848.993524 735.865905C771.657143 809.959619 670.183619 858.89219 557.32419 869.302857zM999.619048 384c0 112.737524-38.619429 216.259048-102.863238 298.837333l-324.022857-291.449905 339.797333-285.110857C967.314286 185.10019 999.619048 280.722286 999.619048 384zM485.985524 371.029333l2.535619 3.047619-2.535619 0L485.985524 870.278095C228.839619 856.673524 24.380952 644.510476 24.380952 384c0-269.312 218.307048-487.619048 487.619048-487.619048 140.385524 0 266.50819 59.66019 355.474286 154.575238L485.985524 371.029333z"  horiz-adv-x="1024" />

    
    <glyph glyph-name="oa" unicode="&#58893;" d="M968.754189 776.226057h-281.414354a47.371843 47.371843 0 0 1-47.307827-47.371843v-119.581896H888.15804c16.260065 0 29.575394-20.165041 29.575393-44.875219 0-24.646162-13.315329-44.747187-29.575393-44.747187H640.032008v-90.518629H888.15804c16.260065 0 29.575394-20.165041 29.575393-44.811203 0-24.646162-13.315329-44.875219-29.575393-44.875219H640.032008v-73.554388H888.15804c16.260065 0 29.575394-20.037009 29.575393-44.683171 0-24.774194-13.315329-44.875219-29.575393-44.875219H640.032008v-137.762441c0-26.054514 21.125281-47.371843 47.307827-47.371843h281.414354a47.499875 47.499875 0 0 1 47.24381 47.371843V728.854214a47.499875 47.499875 0 0 1-47.24381 47.371843zM172.139035 451.408852a58.190548 58.190548 0 0 1-51.788947-27.846962c-10.434609-16.004001-15.747937-36.105026-15.747937-60.431107 0-24.006002 5.44136-44.235059 16.196049-60.431108a57.35834 57.35834 0 0 1 51.340835-28.67917 57.422356 57.422356 0 0 1 51.340835 28.295074c10.498625 16.196049 15.683921 36.553138 15.683921 60.815204 0 24.326082-5.057264 44.427107-15.235809 60.431107a58.190548 58.190548 0 0 1-51.788947 27.846962zM358.873718 342.389597h75.730933l-38.025506 91.670918-37.705427-91.670918zM525.059265 864.312078L54.541635 777.634409a58.894724 58.894724 0 0 1-46.28357-55.821956l1.792448-666.406602a61.007252 61.007252 0 0 1 46.603651-56.846211l468.597149-94.743686c25.542386-5.057264 46.347587 11.970993 46.347587 38.025506V825.582396a38.025506 38.025506 0 0 1-46.539635 38.729682zM250.174544 278.373593c-18.820705-25.47837-44.875219-38.089522-78.035509-38.089522-33.288322 0-59.214804 12.547137-78.099525 38.089522-16.964241 22.405601-25.414354 50.764691-25.414354 84.693174 0 33.992498 8.514129 62.223556 25.414354 84.693173 18.884721 25.15829 44.811203 37.705426 78.099525 37.705426 33.16029 0 59.214804-12.547137 78.035509-37.705426 16.964241-22.469617 25.47837-50.700675 25.478369-84.693173 0.064016-33.928482-8.514129-62.287572-25.478369-84.693174z m225.592398-34.952738L448.752188 309.293323H344.854214l-27.142786-65.872468h-37.64141l99.288822 240.060015h34.44061l99.736934-240.060015h-37.769442z"  horiz-adv-x="1024" />

    
    <glyph glyph-name="ruku" unicode="&#58881;" d="M937.033-8.5c11.6 0 18.9 3.1 22.9 11.1 4 8.1 2.1 53.2 2.1 65.9v203c0 29.2-1.8 35.2-32 35.2h-203c-69.3 0-60.4 6.5-60.4-76.2v-202c0-29.5 0.4-37 31.4-36.9h67c13.6 79.8 124.5 79.8 138.1 0 11.3 0 22.6 0 33.9-0.1z m-309.7 0.4c14.9 0.1 19.6 11.1 19.6 25.6V199.6c0 15.1-2.7 26.1-17 28.1l-91 0.3c-16.4-0.6-21.3-9.6-28.4-17.9-3.1-3.6-6.6-8.7-9.9-13.1-13.4-17.9-38.1-48-46.1-67-7.5-18-4.6-63.8-4.6-86.4 0-36.7-5.8-56.8 39-51.6 3.8 8.9 3.3 14.9 8.5 24.1 29.6 52.4 114.3 49.3 129.9-24.2z m-144.1 117.9c0.5 10.5 27.4 44.2 35.7 55.8 7.1 9.9 13.4 22.4 23 23 12.7 0.7 33.1 0.6 45.9-0.2v-78.5c-27.5-0.9-75.9-0.4-104.6-0.1zM768.5-8.2c-6.4-27.4 13-49.7 34.2-54.4 27.5-6.2 49.1 12.6 54.2 33.9 6.8 28.2-12.5 49.2-34 54.7-27.6 6.9-49.5-13.1-54.4-34.2z m-276.7-5.5c-2.5-26.7 17.1-47.6 40.8-49.7 26.6-2.5 47.5 17.3 49.5 41.4 2.3 27-17.6 46.5-41.7 48.9-25.5 2.5-46.4-17.6-48.6-40.6z m-414.3 635v-684.5h156.3V496.3h549v-111.6h156.3V619.3c0 8.4-16.3 12.9-22.9 15.9l-40.6 19.2c-5.7 2.5-8.5 4.6-14.2 7.1-10.5 4.7-17.3 8.1-27.8 12.7-49.7 22.1-113.2 55.6-162.6 76.8L520.4 822.3c-26.8 13-20.7 13.1-41.2 3.9l-134.8-68.1c-9.1-4.6-17.8-8.2-27.4-13.2L102.3 637.1c-5.8-3-24.8-8.2-24.8-15.8zM280 181.7h96.2v-83.2H280v83.2z m0 111h96.2v-81.4H280v81.4z"  horiz-adv-x="1024" />

    
    <glyph glyph-name="icon-asset" unicode="&#58631;" d="M740.302 30.118h-100.301c21.951 29.003 40.242 61.106 54.155 95.566h61.567v63.71h-41.568c7.016 30.678 10.728 62.674 10.728 95.566h30.84v63.71h-35.555c-4.983 33.334-13.815 65.356-26.011 95.566h539.419c25.641 0 46.426-21.209 46.426-47.783 0-26.39-20.494-47.783-46.426-47.783h-477.852v-63.71h477.852c25.641 0 46.426-21.209 46.426-47.783 0-26.39-20.494-47.783-46.426-47.783h-477.852v-63.71h477.852c25.641 0 46.426-21.209 46.426-47.783 0-26.39-20.494-47.783-46.426-47.783h-493.272zM754.414-45.176h-155.959c-42.282-29.384-92.107-51.449-146.69-63.866 8.221-7.063 19.748-11.428 32.51-11.428h750.513c25.255 0 45.212 16.855 45.212 37.647 0 20.937-20.242 37.647-45.212 37.647h-480.374zM757.421 519.529h-75.957c-21.638 28.405-48.369 53.807-79.11 75.294h632.693c24.827 0 44.954-16.71 44.954-37.647 0-20.792-19.844-37.647-44.954-37.647h-477.626zM738.824 670.118h-262.585c-16.851 5.715-34.283 10.526-52.206 14.357v0c-6.211 6.389-9.915 14.464-9.915 23.29 0 20.792 20.55 37.647 46.554 37.647h772.775c25.711 0 46.554-16.71 46.554-37.647 0-20.792-20.55-37.647-46.554-37.647h-494.623zM738.824 820.706h-278.152c-25.711 0-46.554 16.71-46.554 37.647 0 20.792 20.55 37.647 46.554 37.647h772.775c25.711 0 46.554-16.71 46.554-37.647 0-20.792-20.55-37.647-46.554-37.647h-494.623zM338.824-45.176c187.127 0 338.824 151.696 338.824 338.824 0 187.127-151.696 338.824-338.824 338.824-187.127 0-338.824-151.696-338.824-338.824 0-187.127 151.696-338.824 338.824-338.824zM307.451 217.375v89.766h-156.863v59.844h94.118l-74.228 122.623 54.339 29.922 92.341-152.545h43.332l92.341 152.545 54.339-29.922-74.228-122.623h94.118v-59.844h-156.863v-89.766h156.863v-59.844h-156.863v-89.766h-62.745v89.766h-156.863v59.844h156.863z"  horiz-adv-x="1280" />

    
    <glyph glyph-name="chengzhong" unicode="&#58932;" d="M492.8 70.4zM512 832C262.4 832 64 633.6 64 384c0-57.6 12.8-108.8 25.6-153.6l6.4-12.8C166.4 51.2 326.4-64 512-64c249.6 0 448 198.4 448 448s-198.4 448-448 448z m-19.2-768c-6.4 0-6.4 0-12.8 6.4l-44.8 44.8v-38.4c0-6.4-6.4-12.8-12.8-12.8s-12.8 6.4-12.8 12.8v108.8c0 6.4 6.4 12.8 12.8 12.8s12.8-6.4 12.8-12.8v-32l44.8 38.4c6.4 6.4 6.4 6.4 12.8 6.4s12.8-6.4 12.8-12.8 0-6.4-6.4-12.8l-44.8-38.4 51.2-51.2c6.4-6.4 6.4-6.4 6.4-12.8-6.4 0-6.4-6.4-19.2-6.4z m83.2-38.4c-25.6 0-38.4 6.4-38.4 19.2 0 6.4 6.4 12.8 12.8 12.8s6.4 0 12.8-6.4 12.8-6.4 19.2-6.4c6.4 0 12.8 0 19.2 12.8-12.8 6.4-19.2 6.4-25.6 6.4-19.2 0-44.8 12.8-44.8 51.2 0 38.4 25.6 51.2 44.8 51.2 6.4 0 12.8 0 19.2-6.4 0 6.4 6.4 6.4 12.8 6.4s12.8-6.4 12.8-12.8v-76.8c0-32-19.2-44.8-44.8-51.2z m-32 243.2L620.8 576c6.4 12.8-6.4 32-19.2 32-12.8 6.4-25.6-6.4-32-19.2l-76.8-320H140.8C128 307.2 121.6 345.6 121.6 384c0 217.6 172.8 390.4 390.4 390.4 217.6 0 390.4-172.8 390.4-390.4 0-38.4-6.4-76.8-19.2-115.2H544z m32-128c-6.4 0-19.2-6.4-19.2-25.6 0-25.6 12.8-25.6 19.2-25.6 6.4 0 19.2 6.4 19.2 25.6 0 25.6-12.8 25.6-19.2 25.6z"  horiz-adv-x="1024" />

    
    <glyph glyph-name="sanwei" unicode="&#58887;" d="M552 752L142.4 670.08 408.64 547.2l471.04 81.92L552 752zM142.4 178.56l245.76-163.84V506.24L142.4 629.12v-450.56z m122.88 159.68v36.8c0-16.32 32.8-12.32 32.8 16.32 0 20.48-12.32 36.8-24.64 45.12-12.32 4.16-20.48-4.16-24.64-20.48L208 440.64c4.16 45.12 20.48 57.28 61.44 36.8 36.8-28.64 65.6-61.44 65.6-98.24 0-32.8-28.64-49.12-28.64-45.12 0-24.64 28.64-53.28 28.64-90.08-4.16-36.8-32.8-49.12-69.6-32.8-40.96 24.64-61.44 61.44-61.44 110.56l40.96-24.64c0-24.64 8.16-40.96 20.48-53.28 12.32-8.16 32.8 4.16 32.8 24.64-0.16 32.96-32.96 53.44-32.96 69.76z m163.84-323.52L879.68 137.6V588.16l-450.56-81.92v-491.52z m163.84 401.44l81.92 24.64c90.08 20.48 135.2-12.32 135.2-98.24s-45.12-143.36-135.2-168l-81.92-24.64V416.16zM740.48 321.92c0 61.44-24.64 86.08-77.76 69.6l-28.64-4.16V211.2l28.64 8.16c53.12 8.32 77.76 45.28 77.76 102.56z"  horiz-adv-x="1024" />

    
    <glyph glyph-name="dibang" unicode="&#58882;" d="M170.944 319.36a83.2 83.2 0 0 1 81.28-84.8 84.864 84.864 0 0 1 0 169.6 83.2 83.2 0 0 1-81.28-84.8zM0.64 149.888v-70.4h265.984a303.872 303.872 0 0 0 36.928 70.4H0.64zM89.6 336.32h33.728a132.032 132.032 0 0 0 128.896 118.656 132.032 132.032 0 0 0 128.96-118.656h33.664a33.216 33.216 0 0 1 32.512 33.92V760.192a33.216 33.216 0 0 1-32.512 33.92H219.712c-51.2 0-162.56-169.664-162.56-237.376v-186.56a33.216 33.216 0 0 1 32.512-33.92zM138.432 556.8A228.672 228.672 0 0 0 236.8 709.376c61.504 2.496 112.768 0 112.768 0v-169.6h-211.2V556.8z m591.616-406.848a304.576 304.576 0 0 0 36.928-70.4h256.512v70.4h-293.44z m83.2 165.184a85.44 85.44 0 1 1-85.376-89.024 87.232 87.232 0 0 1 85.376 89.024z m-153.6-132.928a208.192 208.192 0 0 1-66.624 46.336 199.04 199.04 0 0 1-161.984 0 209.216 209.216 0 0 1-66.56-46.336 223.296 223.296 0 0 1 2.368-309.76h290.432a220.928 220.928 0 0 1 63.296 155.84A221.12 221.12 0 0 1 704 112.704a218.816 218.816 0 0 1-44.416 69.44z m-166.4 25.6H531.2v-56.896h-38.016v56.768zM398.208 57.6l-3.776-21.824-1.472-8.448-8.064 1.536-37.696 6.976-8 1.536 1.408 8.32 3.712 21.824 1.28 8.512 8.32-1.6 37.696-7.232 8-1.536-1.408-8.32z m29.76 57.6l-6.4-5.44-5.248 6.4-24.576 30.4-5.312 6.4 6.4 5.504 16.32 14.08 6.4 5.376 5.248-6.4 24.448-30.72 5.312-6.4-6.4-5.44-16.256-14.08z m115.52-128a33.28 33.28 0 0 0-14.208-20.928 29.376 29.376 0 0 0-24.192-4.352 30.848 30.848 0 0 0-19.968 14.784 33.6 33.6 0 0 0-0.512 34.432l-35.84 91.264 64-74.752a30.72 30.72 0 0 0 26.56-15.552 32.832 32.832 0 0 0 3.968-25.024z m59.008 122.24l-6.4 5.376-16.32 14.08-6.4 5.504 5.312 6.4 24.704 30.592 5.248 6.4 6.4-4.992 16.32-14.08 6.4-5.504-5.312-6.4-24.448-30.848-5.248-6.4z m74.432-73.536l-37.696-7.296-8.128-1.6-1.408 8.512-3.712 22.08-1.408 8.32 8 1.536 37.696 7.296 8.128 1.6 1.408-8.448 3.712-21.824 1.408-8.32-8-1.536zM544.896 336.32h49.92a129.408 129.408 0 0 0 257.856 0h66.176a49.856 49.856 0 0 1 48.768 50.88V844.8a49.856 49.856 0 0 1-48.768 51.2H544.896a49.856 49.856 0 0 1-48.768-51.2v-457.664a49.856 49.856 0 0 1 48.768-50.88z"  horiz-adv-x="1024" />

    
    <glyph glyph-name="xitongguanli" unicode="&#59032;" d="M977.92 501.76c20.48 20.48 25.6 51.2 15.36 76.8-20.48 40.96-40.96 81.92-71.68 117.76-15.36 20.48-46.08 30.72-76.8 25.6-40.96-10.24-87.04-5.12-122.88 20.48-35.84 20.48-66.56 56.32-76.8 97.28-10.24 25.6-30.72 46.08-61.44 51.2-46.08 5.12-97.28 5.12-143.36 0-30.72-5.12-51.2-25.6-61.44-51.2-10.24-40.96-40.96-76.8-76.8-97.28-35.84-20.48-81.92-25.6-122.88-20.48-30.72 10.24-56.32 0-76.8-25.6-30.72-35.84-51.2-76.8-71.68-117.76-10.24-25.6-5.12-56.32 15.36-76.8 61.44-66.56 61.44-163.84 0-230.4-20.48-20.48-25.6-51.2-15.36-76.8 20.48-46.08 40.96-87.04 71.68-122.88 15.36-20.48 46.08-30.72 76.8-25.6 87.04 20.48 174.08-30.72 204.8-117.76 10.24-25.6 30.72-46.08 61.44-51.2 20.48-5.12 40.96-5.12 66.56-5.12s46.08 0 71.68 5.12c30.72 5.12 51.2 25.6 61.44 51.2 15.36 40.96 40.96 76.8 76.8 97.28 35.84 20.48 81.92 25.6 122.88 20.48 25.6-5.12 56.32 5.12 76.8 25.6 30.72 35.84 51.2 76.8 71.68 122.88 10.24 25.6 5.12 56.32-15.36 76.8-61.44 61.44-61.44 163.84 0 230.4zM512 189.44c-107.52 0-199.68 87.04-199.68 194.56 0 107.52 87.04 194.56 199.68 194.56 107.52 0 199.68-87.04 199.68-194.56 0-107.52-92.16-194.56-199.68-194.56z"  horiz-adv-x="1024" />

    
    <glyph glyph-name="batchprint" unicode="&#59075;" d="M748.32-48a238.88 238.88 0 0 0-164.16 65.28H249.28v146.56h260.8A237.6 237.6 0 0 0 608 386.72H249.12v368h368v-86.56a59.84 59.84 0 0 1 10.72-37.6 56.32 56.32 0 0 1 48-23.04h88.64v-176a240 240 0 0 0 222.4-214.08v128a133.92 133.92 0 0 1-3.04 29.76 110.72 110.72 0 0 1-108 85.12h-36.32v11.68 132.16a144 144 0 0 1-42.24 101.28q-40.8 40.8-82.08 81.28a142.56 142.56 0 0 1-102.24 42.08H236A55.84 55.84 0 0 1 174.72 768v-307.68H136a110.24 110.24 0 0 1-108.96-112v-232.16c0-17.92 6.56-24.48 24.64-24.48h121.76c0-1.6 1.12-2.08 1.12-2.72v-83.52a55.68 55.68 0 0 1 61.28-61.44h545.12a55.84 55.84 0 0 1 47.2 22.4 239.04 239.04 0 0 0-79.84-14.4zM965.76 90.88c16 0.96 21.28 7.84 21.28 24.64v51.2a237.92 237.92 0 0 0-21.28-75.84zM748.32-64a256 256 0 1 0 256 256 256 256 0 0 0-256-256z m0 480a224 224 0 1 1 224-224 224 224 0 0 1-224 224zM668.8 64V304h77.92a282.56 282.56 0 0 0 57.76-3.68 63.04 63.04 0 0 0 34.56-23.52 74.72 74.72 0 0 0 13.92-46.88 78.72 78.72 0 0 0-8-37.28 65.92 65.92 0 0 0-20.48-23.68 70.24 70.24 0 0 0-25.12-11.36 276.96 276.96 0 0 0-50.4-3.52h-32V64z m48 199.84v-68.32h26.56a125.6 125.6 0 0 1 38.4 3.84 32 32 0 0 1 15.2 11.84 32 32 0 0 1 5.44 18.72 32 32 0 0 1-7.68 21.6 33.6 33.6 0 0 1-19.52 10.72 233.28 233.28 0 0 1-34.88 1.6z"  horiz-adv-x="1024" />

    
    <glyph glyph-name="shuliang" unicode="&#58921;" d="M910.051556 458.581333c0 27.363556-12.288 52.224-36.977778 74.581334 22.641778 22.414222 36.977778 47.217778 36.977778 74.638222 0 96.938667-166.343111 174.08-369.607112 174.08s-369.607111-77.141333-369.607111-174.08c0-27.363556 12.288-52.224 36.977778-74.638222-24.689778-22.357333-36.977778-47.217778-36.977778-74.524445 0-27.420444 12.288-52.280889 36.977778-74.638222-24.689778-22.357333-36.977778-47.217778-36.977778-74.581333s12.288-52.224 36.977778-74.581334c-24.689778-22.414222-36.977778-47.217778-36.977778-74.638222 0-96.938667 166.343111-174.08 369.607111-174.08s369.607111 77.141333 369.607112 174.08c0 27.363556-12.288 52.224-36.977778 74.638222 22.641778 22.357333 36.977778 47.217778 36.977778 74.524445 0 27.420444-12.288 52.280889-36.977778 74.638222 24.689778 22.357333 36.977778 47.217778 36.977778 74.581333z m-41.073778-149.162666c0-69.632-147.854222-124.359111-328.533334-124.359111s-328.533333 54.727111-328.533333 124.359111c0 17.408 10.24 34.816 26.680889 49.720889 67.754667-44.771556 176.583111-74.581333 301.852444-74.581334s234.097778 29.809778 301.852445 74.524445c16.440889-14.848 26.737778-32.256 26.737778-49.664zM540.444444 334.279111c-180.679111 0-328.533333 54.670222-328.533333 124.302222 0 17.408 10.24 34.816 26.680889 49.720889 67.754667-44.714667 176.583111-74.524444 301.852444-74.524444s234.097778 29.809778 301.852445 74.524444c16.440889-14.904889 26.737778-32.312889 26.737778-49.720889 0-69.632-147.911111-124.302222-328.590223-124.302222z m0 397.824c180.679111 0 328.533333-54.727111 328.533334-124.302222 0-69.632-147.854222-124.359111-328.533334-124.359111S211.911111 538.168889 211.911111 607.800889c0 69.575111 147.854222 124.302222 328.533333 124.302222z m0-696.206222c-180.679111 0-328.533333 54.727111-328.533333 124.302222 0 17.408 10.24 34.816 26.680889 49.720889 67.754667-44.714667 176.583111-74.524444 301.852444-74.524444s234.097778 29.809778 301.852445 74.524444c16.440889-14.904889 26.737778-32.312889 26.737778-49.720889 0-69.575111-147.911111-124.302222-328.590223-124.302222z"  horiz-adv-x="1024" />

    
    <glyph glyph-name="jihua" unicode="&#58912;" d="M796.450133 895.938564H72.66892C32.602204 895.938564 0 863.33636 0 823.259404v-852.285502c0-40.076955 32.602204-72.679159 72.66892-72.67916h549.517109a276.975381 276.975381 0 0 0-58.395216 61.436314 273.104894 273.104894 0 0 0-48.862349 156.150631c0 151.50195 123.251485 274.753435 274.753435 274.753435 6.061716 0 12.061996-0.266224 18.031558-0.655321 21.216007-1.382317 41.786933-5.16065 61.436314-11.099494V823.259404C869.139532 863.33636 836.527088 895.938564 796.450133 895.938564z m-6.778473-443.867128c-185.373838 0-336.189749-150.815911-336.189749-336.189749a333.988281 333.988281 0 0 1 38.602484-156.150631H72.66892A11.253085 11.253085 0 0 0 61.436314-29.026098V823.259404C61.436314 829.464472 66.474092 834.50225 72.66892 834.50225h723.791452a11.263324 11.263324 0 0 0 11.253085-11.242846v-371.679459a340.17287 340.17287 0 0 1-18.041797 0.491491zM783.732816-128c-132.446453 0-240.195508 107.749055-240.195508 240.205748 0 132.446453 107.749055 240.195508 240.195508 240.195508C916.189509 352.401256 1023.938564 244.652201 1023.938564 112.205748 1023.938564-20.250945 916.189509-128 783.732816-128z m0 418.964942c-98.564326 0-178.759194-80.194868-178.759194-178.759194C604.973622 13.631182 685.16849-66.563686 783.732816-66.563686 882.307382-66.563686 962.50225 13.631182 962.50225 112.205748c0 98.564326-80.194868 178.759194-178.769434 178.759194zM884.00712 117.960282h-97.489191v97.489191a10.239386 10.239386 0 0 1-10.239386 10.239386H750.034998a10.239386 10.239386 0 0 1-10.239386-10.239386V81.477351a10.239386 10.239386 0 0 1 10.239386-10.239385H884.00712a10.239386 10.239386 0 0 1 10.239385 10.239385v26.243546a10.239386 10.239386 0 0 1-10.239385 10.239385zM581.945243 617.345359H143.351399a10.239386 10.239386 0 0 1-10.239386-10.239385v-32.428135a10.239386 10.239386 0 0 1 10.239386-10.239385h438.593844a10.239386 10.239386 0 0 1 10.239386 10.239385v32.428135a10.239386 10.239386 0 0 1-10.239386 10.239385zM501.729896 399.256685H143.351399a10.239386 10.239386 0 0 1-10.239386-10.239386v-32.428134a10.239386 10.239386 0 0 1 10.239386-10.239386h358.378497a10.239386 10.239386 0 0 1 10.239386 10.239386v32.428134a10.239386 10.239386 0 0 1-10.239386 10.239386zM401.895886 203.50011H143.351399a10.239386 10.239386 0 0 1-10.239386-10.239386v-32.428134a10.239386 10.239386 0 0 1 10.239386-10.239386h258.544487a10.239386 10.239386 0 0 1 10.239386 10.239386v32.428134a10.239386 10.239386 0 0 1-10.239386 10.239386z"  horiz-adv-x="1024" />

    
    <glyph glyph-name="liangyou" unicode="&#58994;" d="M515.999-122.885c-279.941 0-506.88 226.939-506.88 506.895 0 279.941 226.939 506.875 506.88 506.875s506.88-226.934 506.88-506.875c0-279.956-226.94-506.895-506.88-506.895zM511.8 690.519c-33.377 0.84-52.802-9.923-52.802-9.923v-40.355h105.64v40.355c-0.004 0-19.46 10.763-52.838 9.923z m197.643-558.28V494.797c0 18.836-11.935 25.113-11.935 25.113L565.146 624.88H458.49L326.124 519.91s-11.971-6.282-11.971-25.113v-362.558s-4.629-53.867 54.333-53.867H655.14c58.931 0.005 54.303 53.867 54.303 53.867zM643.999 251.74h-80.896c-6.124 0-11.085 4.833-11.085 10.752V440.274c0 5.98 4.961 10.793 11.085 10.793h80.906c6.123 0 11.095-4.813 11.095-10.793v-177.787c0-5.914-4.982-10.747-11.105-10.747z"  horiz-adv-x="1032" />

    
    <glyph glyph-name="churuku" unicode="&#58941;" d="M218.798 76.422h302.378v-67.625H218.798z m0 219.774h302.378v-67.623H218.798z m0-112.704h302.378v-67.625H218.798zM840.364 308.649h91.424V479.045h33.68c19.246 0 28.871 9.621 28.871 28.867v43.309c0 14.433-4.811 24.058-19.244 28.867-149.165 72.179-298.329 139.543-447.493 206.906-14.439 4.812-24.06 4.812-33.685 0-144.351-67.363-288.703-129.918-433.054-197.281-14.438-4.813-28.872-9.625-33.684-24.059v-62.551c4.812-14.437 19.246-19.25 38.492-28.871h28.871v-433.057c0-14.436 4.813-28.871 14.438-43.305 9.621-9.625 24.058-19.246 38.492-19.246h38.496V349.128h654.396v-40.479zM335.132 493.478c0-4.812 0-9.625-9.625-9.625h-134.73c-4.809 0-9.621 0-9.621 9.625v43.305c0 4.813 4.812 9.625 9.621 9.625h134.73c4.813 0 9.625-4.812 9.625-9.625v-43.305z m250.206 0c0-4.812-4.807-9.625-9.621-9.625h-67.362c-24.059 0-43.309 0-67.367 4.813-4.813 0-9.621 0-9.621 9.625v38.492c0 4.813 0 9.625 9.621 9.625h134.729c4.814 0 9.621-4.812 9.621-9.625v-43.305z m245.402 0c0-4.812 0-9.625-9.623-9.625h-67.365c-19.25 0-43.307 0-62.553 4.813-9.623 0-14.434 0-14.434 9.625v38.492c0 4.813 0 9.625 9.619 9.625h134.732c4.813 0 9.623 0 9.623-9.625v-43.305z m134.091-396.421H578.127c-0.332 0-0.666-0.083-0.998-0.083h-0.246c-12.625-1.212-22.68-11.665-23.924-24.883v-0.261c0-0.347-0.08-0.69-0.08-1.037v-3.281c0-0.258 0-0.521 0.08-0.778 0-0.261 0.087-0.517 0.087-0.775 0-0.173 0-0.345 0.078-0.519 0.084-0.346 0.084-0.607 0.167-0.953 0-0.084 0-0.258 0.085-0.341l0.25-1.038c0-0.09 0-0.174 0.084-0.174 0.081-0.346 0.167-0.779 0.334-1.123v-0.173c0.078-0.435 0.244-0.781 0.325-1.211v-0.088c0.166-0.431 0.252-0.86 0.419-1.207 1.412-3.627 3.566-6.825 6.146-9.503l74.833-77.846c10.382-10.802 27.159-10.802 37.622 0 10.382 10.799 10.382 28.252 0 39.141l-29.736 30.841h321.179c14.701 0 26.573 12.356 26.573 27.649 0 15.291-11.873 27.643-26.574 27.643M991.405 181.383v0.52c0 0.257 0 0.52-0.08 0.778 0 0.261-0.087 0.516-0.087 0.773 0 0.175 0 0.347-0.078 0.521-0.084 0.343-0.084 0.691-0.168 0.953 0 0.084 0 0.258-0.084 0.34l-0.25 1.039c0 0.088 0 0.171-0.084 0.171-0.081 0.349-0.167 0.781-0.334 1.124v0.171c-0.078 0.438-0.245 0.781-0.325 1.213v0.089c-0.166 0.429-0.252 0.861-0.42 1.207-1.409 3.627-3.565 6.824-6.145 9.504l-74.833 77.846c-10.382 10.798-27.159 10.798-37.621 0-10.382-10.799-10.382-28.252 0-39.141l29.816-31.014h-321.26c-14.701 0-26.573-12.358-26.573-27.649 0-15.293 11.872-27.646 26.573-27.646h386.704c0.332 0 0.666 0.086 0.998 0.086h0.246c12.625 1.21 22.68 11.661 23.924 24.881v0.261c0 0.347 0.08 0.692 0.08 1.037v2.936"  horiz-adv-x="1024" />

    
    <glyph glyph-name="ditu" unicode="&#58917;" d="M260.348 572.904q5.735-21.986 12.904-47.794t16.251-52.574 20.551-53.051 24.853-49.228v-376.618L95.936-65.626V531.801z m71.692 32.5q0 4.78-0.478 9.081t-0.478 9.081q0 43.015 16.728 80.294t45.404 65.478 66.912 44.449 82.206 16.251 82.206-16.251 66.912-44.449 45.404-65.478 16.728-80.294v-11.471q0-5.735-0.956-11.471-5.735-50.662-22.463-97.022t-42.537-89.375-59.265-82.684-71.692-75.992q-6.692-6.692-14.339-6.692t-14.339 6.692q-39.192 36.324-72.647 76.471t-59.265 84.118-42.537 91.287-21.508 97.978z m210.294 106.103q-19.118 0-35.368-6.692t-28.198-18.639-19.118-28.198-7.169-34.412 7.169-34.412 19.118-28.198 28.198-18.639 35.368-6.692 35.845 6.692 28.676 18.639 19.118 28.198 7.169 34.412-7.169 34.412-19.118 28.198-28.676 18.639-35.845 6.692zM394.172 292.829q27.721-30.588 54.008-55.441t47.316-43.971q24.853-21.986 46.839-39.192 11.471 9.559 25.809 21.986 12.427 10.515 28.676 26.765T634.1 239.3v-304.927l-239.927 59.265V292.83z m538.162 299.192v-598.382l-238.971-59.265V300.477q5.735 5.735 10.992 11.949t10.992 11.949q19.118 21.029 35.368 50.184t29.155 62.133 22.941 65.956 17.684 61.655z"  horiz-adv-x="1024" />

    
    <glyph glyph-name="zhuye" unicode="&#58960;" d="M1024.257813 418.55592L886.322448 555.454177 553.410777 882.1432a46.66986 46.66986 0 0 1-66.374912 0L154.124194 555.454177 16.188829 418.55592a46.66986 46.66986 0 1 1 65.337805-66.374912l59.115156 58.078048v-491.589196a46.66986 46.66986 0 0 1 46.669861-46.66986h665.823341a46.66986 46.66986 0 0 1 46.66986 46.66986V409.221948l59.115157-58.078048a46.66986 46.66986 0 1 1 65.337804 66.374912z m-663.749125-182.531009h319.429266V-37.771603H360.508688z"  horiz-adv-x="1040" />

    
    <glyph glyph-name="location" unicode="&#58627;" d="M512.103132 575.879021a106.221743 106.221743 0 1 0-75.507022-31.354611A106.221743 106.221743 0 0 0 512.103132 575.879021m0 63.989002a170.850635 170.850635 0 1 1 120.939214-49.911422A169.570855 169.570855 0 0 1 512.103132 639.868023zM805.172761 771.685367a407.609942 407.609942 0 0 1-586.139257 0 431.285873 431.285873 0 0 1 0-599.576948L512.103132-128l293.069629 300.108419a431.285873 431.285873 0 0 1 0 599.576948z m-44.152411-557.344207l-248.917218-255.956007-248.917217 255.956007a365.377201 365.377201 0 0 0 0 508.712565 346.82039 346.82039 0 0 0 497.834435 0 365.377201 365.377201 0 0 0 0-508.712565z"  horiz-adv-x="1024" />

    
    <glyph glyph-name="icon-dingwei" unicode="&#58626;" d="M512.09668625 563.88658219a99.58288406 99.58288406 0 1 0-70.78783313-29.39494782A99.58288406 99.58288406 0 0 0 512.09668625 563.88658219m0 59.98968937a160.17247031 160.17247031 0 1 1 113.38051313-46.79195812A158.97267656 158.97267656 0 0 1 512.09668625 623.8762715600001zM786.84946344 747.45503156a382.13432062 382.13432062 0 0 1-549.50555344 0 404.33050594 404.33050594 0 0 1 0-562.10338875L512.09668625-96l274.75277719 281.35164281a404.33050594 404.33050594 0 0 1 0 562.10338875z m-41.39288532-522.51019406l-233.35989187-239.95875656-233.35989094 239.95875656a342.54112594 342.54112594 0 0 0 0 476.91802969 325.14411562 325.14411562 0 0 0 466.71978282 0 342.54112594 342.54112594 0 0 0 0-476.91802969z"  horiz-adv-x="1024" />

    
    <glyph glyph-name="chuku" unicode="&#58913;" d="M688.204362 295.230297H456.206593c-34.49696 0-36.55307-6.853701-36.553071-40.208377v-231.883541c0-14.507-2.170339-66.023983 2.398795-75.290758s12.850689-12.665068 26.158292-12.665068c12.850689 0.09995 25.929834 0.09995 38.837637 0.09995 15.535055 91.154219 142.21429 91.154219 157.749344 0h76.532992c35.410787-0.09995 35.8677 8.467176 35.8677 42.164538v230.741257c0 94.466841 10.166323 87.041999-68.99392 87.041999zM999.362374 93.260305c-9.024039 21.703386-37.238441 55.971889-52.659267 76.547269-3.769535 5.026047-7.767527 10.837414-11.308606 14.963914-8.110213 9.366724-13.82163 19.761504-32.44085 20.446873l-103.947795-0.356963c-16.334653-2.270288-19.418819-14.735457-19.418818-32.098165V-35.246584c0-16.434603 5.368732-29.113949 22.388755-29.113949 17.819622 83.957834 114.685259 87.613141 148.382621 27.529031 5.939874-10.523286 5.368732-17.362708 9.709409-27.529031 51.174299-5.939874 44.549055 17.134252 44.549055 58.941826 0 25.815606 3.42685 78.132188-5.254504 98.679012z m-152.266384-22.845669v89.683529c14.621228 0.913827 37.923811 1.013777 52.43081 0.228457 10.965921-0.571142 18.162307-14.963913 26.27252-26.27252 9.480953-13.250488 40.322606-51.759719 40.779519-63.739416-32.783535-0.356964-88.070054-0.913827-119.482849 0.09995zM554.328741-25.408668c-24.559094-6.282559-46.605165-30.28479-38.837637-62.482904 5.825646-24.273523 30.498968-45.819845 61.911763-38.737688 24.273523 5.383011 46.376708 30.855932 39.066094 62.14022-5.711417 24.116459-30.727425 46.962128-62.14022 39.080372zM824.364549 384.314128h178.481789V652.293826c0 9.60946-18.562106 14.735457-26.158291 18.176585l-46.376708 21.931842c-6.511016 2.855709-9.709409 5.254504-16.220425 8.110213-11.993976 5.354454-19.761504 9.252496-31.75548 14.507-56.771488 25.244464-129.306487 63.51096-185.735289 87.727369l-172.027888 81.387696c-30.613196 14.835406-23.645267 14.963913-47.119192 4.440627L323.587484 810.857047c-10.394779-5.254504-20.332645-9.381003-31.298567-15.09242L47.04066 672.64075C40.415416 669.199621 18.712031 663.259747 18.712031 654.592671v-781.907301h178.481789V511.80724h627.113615zM876.852474-24.380612c-27.529031-2.755759-50.260472-25.016008-47.63322-55.857661a51.788276 51.788276 0 1 1 103.148195 9.480952c-2.455909 26.258241-26.215405 49.232417-55.514975 46.376709zM250.02443 279.238329h109.887668v-92.981873H250.02443zM250.02443 152.444866h109.887668v-95.037983H250.02443z"  horiz-adv-x="1024" />

    
    <glyph glyph-name="wendu" unicode="&#60113;" d="M698.171588 359.617006a281.471472 281.471472 0 0 0 88.639833-205.311615 280.447474 280.447474 0 0 0-82.687845-199.679626A280.447474 280.447474 0 0 0 504.443951-127.99808a280.447474 280.447474 0 0 0-199.551626 82.687845A280.447474 280.447474 0 0 0 222.20448 154.241391c0 78.207853 31.99994 152.063715 88.575834 205.311615V740.160292c0 43.007919 22.079959 84.415842 60.671886 113.599787C407.420133 881.024028 454.652044 896 504.443951 896c49.791907 0 97.087818-14.975972 133.05575-42.239921 38.527928-29.183945 60.607886-70.591868 60.607887-113.599787v-380.543286z m-193.663637-411.711228a206.591613 206.591613 0 0 1 206.399613 206.399613c0 61.631884-27.327949 119.615776-74.87986 158.975702l-13.695974 11.391978V740.160292c0 43.327919-53.951899 79.99985-117.823779 79.99985s-117.823779-36.671931-117.823779-79.99985v-415.487221l-13.759975-11.391978a205.887614 205.887614 0 0 1-74.879859-158.975702 206.591613 206.591613 0 0 1 206.463613-206.399613z m276.479481 502.207058a18.687965 18.687965 0 1 0 0-37.43993h-45.567914a18.687965 18.687965 0 1 0 0 37.43993h45.567914zM562.683842 286.017144a143.99973 143.99973 0 1 0-116.479782 0V635.648488c0 24.319954 26.047951 44.095917 58.239891 44.095917 32.12794 0 58.239891-19.775963 58.239891-44.095917V286.081144z m172.671676 413.695224a18.687965 18.687965 0 1 0 0 37.43993h45.567914a18.687965 18.687965 0 1 0 0-37.43993h-45.567914z m45.567914-19.967963a18.687965 18.687965 0 1 0 0-37.439929h-45.567914a18.687965 18.687965 0 1 0 0 37.439929h45.567914z m0-57.407892a18.687965 18.687965 0 1 0 0-37.43993h-45.567914a18.687965 18.687965 0 1 0 0 37.43993h45.567914z m0-57.407892a18.687965 18.687965 0 1 0 0-37.43993h-45.567914a18.687965 18.687965 0 1 0 0 37.43993h45.567914z m0-57.407893a18.687965 18.687965 0 1 0 0-37.439929h-45.567914a18.687965 18.687965 0 1 0 0 37.439929h45.567914z"  horiz-adv-x="1024" />

    
    <glyph glyph-name="anfang" unicode="&#59087;" d="M512 9.7c85.5 26.9 313.8 124.9 313.8 352.3v14.8H512v-367.1z m0 0M512 831.7c-136.1-98-392.2-98-392.2-98v-374.3c0-292.8 282-393.9 392.2-423 109.7 29.1 392.2 130.3 392.2 423V733.6s-256.1 0-392.2 98.1z m344.7-470.1c0-249.8-250.7-352.3-344.7-381.4-94.5 29.5-344.7 132.1-344.7 381.4V684.8s208.6 6.7 344.7 87.7c136.1-79.7 344.7-87.7 344.7-87.7v-323.2z m0 0M200 655.3v-279.8h312v368c-124.5-73.9-312-88.2-312-88.2z m0 0"  horiz-adv-x="1024" />

    
    <glyph glyph-name="nenghao" unicode="&#59067;" d="M591.417 837.916c94.265 0 181.874-28.9 254.52-78.279a617.638 617.638 0 0 0 68.609 21.05C826.368 852.706 713.899 896 591.416 896 457.843 896 336.385 844.174 245.135 760.092c22.187-5.29 44.203-11.89 66.048-19.74 77.255 60.928 174.422 97.564 280.235 97.564m437.305-333.937c10.524-38.287 16.611-78.393 16.611-119.979 0-246.67-197.86-447.545-443.164-453.348V428.43c100.75-19.513 208.384-6.94 306.29 44.487 108.316 56.89 184.604 150.3 222.833 257.024-109.568 29.127-229.774 19.343-338.033-37.546-106.553-55.979-181.988-147.4-220.843-252.018h-3.982C529.636 544.996 454.2 636.416 347.59 692.395 239.33 749.284 119.067 759.068 9.5 729.941c38.172-106.666 114.517-200.078 222.833-256.967 97.906-51.427 205.54-64 306.233-44.487V-66.56C313.117-40.277 137.5 151.609 137.5 384c0 30.777 3.186 60.871 9.046 89.941-17.238 13.312-33.735 27.25-49.266 42.041-11.264-42.154-17.863-86.3-17.863-131.982 0-282.34 229.66-512 512-512 282.34 0 512 229.66 512 512 0 57.06-9.842 111.787-27.136 163.1-15.019-15.075-30.777-29.525-47.56-43.121"  horiz-adv-x="1138" />

    
    <glyph glyph-name="hangzheng" unicode="&#58979;" d="M192-128v64H896a64 64 0 0 1 64 64V768A64 64 0 0 1 896 832H192A64 64 0 0 1 128 768v-585.557333H64V768a128 128 0 0 0 128 128H896a128 128 0 0 0 128-128v-768a128 128 0 0 0-128-128H192z m0 0v64H896a64 64 0 0 1 64 64V768A64 64 0 0 1 896 832H192A64 64 0 0 1 128 768v-585.557333H64V768a128 128 0 0 0 128 128H896a128 128 0 0 0 128-128v-768a128 128 0 0 0-128-128H192zM865.92-82.304a36.48 36.48 0 0 0 3.2 17.322667c-2.176-2.56-7.466667-7.978667-15.36-14.762667l12.970667-14.848a83.626667 83.626667 0 0 0-0.810667 12.288z m-98.048 114.304V128H64v-128A64 64 0 0 1 128-64h658.688c-14.08 26.112-20.48 58.88-18.816 96zM64 192h703.872a64 64 0 0 0 64-64v-96c-2.730667-60.885333 18.56-92.885333 64-96 45.44-3.114667 45.44-24.448 0-64H128a128 128 0 0 0-128 128v128a64 64 0 0 0 64 64zM832 640a32 32 0 1 0 0-64H384A32 32 0 0 0 384 640h448zM224 638.08h64v-64h-64zM832 384a32 32 0 1 0 0-64H384A32 32 0 1 0 384 384h448zM224 382.08h64v-64h-64z"  horiz-adv-x="1024" />

    
    <glyph glyph-name="hetong" unicode="&#58891;" d="M762.88 252.586667c-51.2 0-98.986667-18.773333-133.12-56.32-35.84-34.133333-56.32-83.626667-56.32-133.12 0-51.2 18.773333-98.986667 56.32-133.12 35.84-35.84 83.626667-56.32 134.826667-56.32s98.986667 18.773333 133.12 56.32c35.84 35.84 56.32 83.626667 56.32 133.12 0 51.2-18.773333 98.986667-56.32 133.12-34.133333 35.84-83.626667 56.32-134.826667 56.32z m49.493333-141.653334l52.906667-8.533333c13.653333-1.706667 18.773333-18.773333 10.24-29.013333L836.266667 37.546667c-3.413333-3.413333-5.12-10.24-5.12-15.36l8.533333-52.906667c1.706667-13.653333-11.946667-23.893333-25.6-18.773333L768-23.893333c-5.12 3.413333-10.24 3.413333-15.36 0l-47.786667-25.6c-11.946667-6.826667-27.306667 3.413333-25.6 18.773333l8.533334 52.906667c1.706667 5.12-1.706667 11.946667-5.12 15.36l-39.253334 37.546666c-10.24 10.24-5.12 27.306667 10.24 29.013334l52.906667 8.533333c5.12 0 10.24 5.12 13.653333 8.533333l23.893334 47.786667c6.826667 11.946667 23.893333 11.946667 30.72 0l23.893333-47.786667c3.413333-5.12 8.533333-8.533333 13.653333-10.24zM873.813333 699.733333l-167.253333 170.666667C689.493333 885.76 667.306667 896 641.706667 896H145.066667C104.106667 896 69.973333 861.866667 69.973333 819.2v-826.026667c0-42.666667 34.133333-76.8 76.8-76.8h431.786667c-37.546667 40.96-63.146667 81.92-63.146667 145.066667 0 133.12 112.64 245.76 250.88 245.76 59.733333 0 93.866667-20.48 136.533334-54.613333V634.88c-1.706667 18.773333-13.653333 49.493333-29.013334 64.853333zM715.093333 435.2H256c-22.186667 0-39.253333 17.066667-39.253333 39.253333 0 22.186667 17.066667 39.253333 39.253333 39.253334h460.8c22.186667 0 39.253333-17.066667 39.253333-39.253334 0-22.186667-18.773333-39.253333-40.96-39.253333zM256 252.586667c-22.186667 0-39.253333 17.066667-39.253333 39.253333 0 22.186667 17.066667 39.253333 39.253333 39.253333h204.8c22.186667 0 39.253333-17.066667 39.253333-39.253333 0-22.186667-18.773333-39.253333-40.96-39.253333H256z m459.093333 356.693333H256c-22.186667 0-39.253333 17.066667-39.253333 39.253333 0 22.186667 17.066667 39.253333 39.253333 39.253334h460.8c22.186667 0 39.253333-17.066667 39.253333-39.253334-1.706667-22.186667-18.773333-39.253333-40.96-39.253333z m0 0"  horiz-adv-x="1024" />

    
    <glyph glyph-name="yunwei" unicode="&#58937;" d="M842.642 134.18600000000004H181.357c-46.407 0-84.163 37.756-84.163 84.162V699.28c0 46.408 37.756 84.164 84.163 84.164h661.284c46.407 0 84.164-37.756 84.164-84.164v-480.933c0.001-46.406-37.756-84.161-84.163-84.161zM181.357 735.351c-19.889 0-36.069-16.18-36.069-36.07v-480.933c0-19.888 16.181-36.07 36.069-36.07h661.284c19.89 0 36.071 16.183 36.071 36.07V699.28c0 19.891-16.182 36.07-36.071 36.07H181.357zM902.758-15.44399999999996H121.241c-13.281 0-24.047 10.766-24.047 24.046 0 13.282 10.766 24.047 24.047 24.047h781.517c13.281 0 24.048-10.765 24.048-24.047 0-13.281-10.767-24.046-24.048-24.046zM705.836 499.174l-39.967 4.902a157.85 157.85 0 0 1-12.546 31.215l24.811 31.747c5.993 7.669 4.408 19.745-3.223 27.377l-25.837 25.838c-7.633 7.632-19.711 9.216-27.379 3.223l-30.844-24.104a158.107 158.107 0 0 1-31.969 13.67l-4.764 38.833c-1.185 9.659-10.844 17.079-21.637 17.079H495.94c-10.793 0-20.452-7.42-21.638-17.079l-4.652-37.936a158.072 158.072 0 0 1-32.959-13.411L406.44 624.1700000000001c-7.668 5.993-19.746 4.41-27.378-3.223l-25.837-25.838c-7.631-7.632-9.216-19.708-3.224-27.377l23.464-30.022a158.151 158.151 0 0 1-13.635-32.865l-38.227-4.688c-9.661-1.186-17.079-10.845-17.079-21.638v-36.541c-0.001-10.792 7.418-20.452 17.079-21.636l38.529-4.727a158.035 158.035 0 0 1 13.458-32.067l-24.283-31.071c-5.993-7.668-4.409-19.746 3.222-27.376l25.838-25.838c7.633-7.635 19.709-9.217 27.378-3.223l31.497 24.614a158.19 158.19 0 0 1 31.142-12.749l4.938-40.263c1.186-9.66 10.845-17.082 21.638-17.081h36.54c10.792-0.001 20.452 7.421 21.638 17.081l4.975 40.566a158.253 158.253 0 0 1 30.35 12.564l32.539-25.43c7.67-5.993 19.747-4.408 27.376 3.226l25.839 25.835c7.634 7.635 9.216 19.711 3.223 27.379l-25.249 32.308a158.06 158.06 0 0 1 12.777 30.256l40.869 5.012c9.662 1.185 17.08 10.846 17.078 21.639l0.001 36.539c0 10.793-7.418 20.454-17.08 21.638zM513.723 374.31100000000004c-47.192 0-85.448 38.256-85.448 85.446 0 47.191 38.256 85.446 85.448 85.446 47.19 0 85.444-38.255 85.444-85.446 0-47.191-38.254-85.446-85.444-85.446z"  horiz-adv-x="1024" />

    
    <glyph glyph-name="jiesuan" unicode="&#58899;" d="M128 674.133h955.733c17.067 0 34.134-17.066 34.134-34.133v-665.6c0-8.533 0-17.067-8.534-25.6-8.533-8.533-17.066-8.533-25.6-8.533h-972.8c-8.533 0-17.066 0-25.6 8.533-8.533 8.533-8.533 17.067-8.533 25.6V640c0 8.533 0 17.067 8.533 25.6 8.534 8.533 17.067 8.533 25.6 8.533H128z m-8.533 51.2c-34.134 0-68.267-8.533-85.334-34.133C8.533 674.133 0 648.533 0 622.933V-25.6c0-25.6 8.533-51.2 34.133-68.267 17.067-25.6 51.2-34.133 76.8-34.133h972.8c25.6 0 59.734 8.533 76.8 25.6 17.067 17.067 34.134 42.667 34.134 68.267V622.933c0 25.6-8.534 51.2-34.134 68.267-17.066 25.6-51.2 34.133-76.8 34.133H460.8l494.933 102.4c42.667 0 68.267-34.133 68.267-68.266v-34.134h76.8v34.134c0 34.133-17.067 68.266-42.667 93.866C1032.533 878.933 989.867 896 955.733 896H947.2L119.467 725.333zM563.2 170.667v68.266H418.133C401.067 238.933 384 256 384 273.067s17.067 34.133 34.133 34.133h110.934l-153.6 238.933c-8.534 17.067 0 42.667 17.066 51.2 8.534 8.534 17.067 8.534 25.6 8.534 8.534 0 17.067-8.534 25.6-17.067l153.6-247.467 153.6 238.934c8.534 17.066 17.067 17.066 25.6 25.6 8.534 0 17.067 0 25.6-8.534 17.067-8.533 25.6-34.133 8.534-51.2L665.6 315.733h119.467c17.066 0 34.133-17.066 34.133-34.133s-17.067-42.667-42.667-42.667H631.467v-68.266h145.066c17.067 0 34.134-17.067 34.134-34.134S793.6 102.4 776.533 102.4H631.467v-119.467c0-8.533-8.534-25.6-17.067-34.133-8.533-8.533-25.6-8.533-34.133 0-8.534 8.533-17.067 17.067-17.067 34.133V102.4H418.133c-17.066 0-34.133 17.067-34.133 34.133s17.067 34.134 34.133 34.134H563.2z"  horiz-adv-x="1194" />

    
    <glyph glyph-name="icon-test" unicode="&#58883;" d="M655.73 268.314h29.699c3.672 0 6.676 3.004 6.676 6.676v38.17c0 3.67-3.004 6.674-6.676 6.674H655.73c-3.672 0-6.676-3.004-6.676-6.674v-38.17c0.001-3.672 3.005-6.676 6.676-6.676zM655.73 191.035h29.699c3.672 0 6.676 3.004 6.676 6.676v38.17c0 3.67-3.004 6.674-6.676 6.674H655.73c-3.672 0-6.676-3.004-6.676-6.674v-38.17c0.001-3.672 3.005-6.676 6.676-6.676zM655.73 355.595h29.699c3.672 0 6.676 3.004 6.676 6.675v38.17c0 3.67-3.004 6.674-6.676 6.674H655.73c-3.672 0-6.676-3.004-6.676-6.674v-38.171c0.001-3.67 3.005-6.674 6.676-6.674zM710.447 169.805h-99.665c-4.111 0-7.475-3.363-7.475-7.475v-16.127c0-4.109 3.363-7.475 7.475-7.475h99.665c4.111 0 7.475 3.365 7.475 7.475V162.33c0 4.111-3.363 7.475-7.475 7.475zM512 894C230.335 894 2 665.665 2 384c0-281.664 228.335-510 510-510 281.666 0 510 228.336 510 510C1022 665.665 793.666 894 512 894zM400.576 675.067c48.377 0 87.594-39.217 87.594-87.594 0-48.375-39.217-87.592-87.594-87.592-48.376 0-87.594 39.217-87.594 87.592 0 48.378 39.218 87.594 87.594 87.594z m130.928-582.133H270.63v52.459h-55.434l-0.17 7.426c-0.21 8.992-4.891 220.71 12.7 263.503 8.095 19.689 26.394 34.75 52.918 43.553 13.923 4.622 28.759 6.967 44.091 6.967h18.898l20.814-94.045h15.846l8.761 46.14h0.484l-17.943 25.208 8.012 23.667h42.527l8.011-23.667-17.944-25.208h0.567l9.469-46.14h15.701l23.416 94.045h16.042c15.332 0 30.166-2.345 44.092-6.967 26.523-8.803 44.822-23.863 52.916-43.553 17.591-42.793 12.908-254.511 12.701-263.503l-0.172-7.426h-55.432v-52.459z m278.187 13.252c0-6.504-5.32-11.826-11.824-11.826h-251.08v39.97h55.433l0.172 7.885c0.059 2.67 0.467 22.17 0.639 49.871l-0.006-1.051h22.799c3.619 0 6.578 2.959 6.578 6.578v38.363c0 3.619-2.959 6.578-6.578 6.578h-22.809c0.014-1.697 0.023-3.381 0.033-5.057-0.059 9.994-0.162 20.342-0.326 30.816h23.102c3.619 0 6.578 2.961 6.578 6.578v38.363c0 3.619-2.959 6.578-6.578 6.578h-24.475c-0.49 12.408-1.106 24.46-1.877 35.761h26.352c3.619 0 6.578 2.96 6.578 6.578v38.363c0 3.619-2.959 6.578-6.578 6.578h-29.895a6.5 6.5 0 0 1-2.201-0.39c-1.193 6.256-2.533 11.45-4.037 15.333-5.262 13.59-14.837 25.102-28.176 34.064h-0.001l-0.004 0.003a0.022 0.022 0 0 0 0.005-0.003h199.13c6.504 0 11.824 5.32 11.824 11.824v39.498c0 6.504-5.32 11.826-11.824 11.826h-223.18c-6.504 0-11.824-5.322-11.824-11.826v-35.795l0.031-0.009c-9.283 2.349-18.896 3.698-28.737 3.996v66.938c0 6.504 5.321 11.826 11.825 11.826h289.107c6.504 0 11.824-5.322 11.824-11.826v-436.385zM760.469 409.756h-30.547c-6.6 0-12-5.399-12-12v-200.479c0-6.602 5.4-12 12-12h30.547c6.602 0 12 5.398 12 12V397.756c0 6.6-5.399 12-12 12z"  horiz-adv-x="1024" />

    
    <glyph glyph-name="renwu-touxiang" unicode="&#58894;" d="M856.1664 86.42560000000003A425.1136 425.1136 0 0 1 977.0496 384a426.5984 426.5984 0 0 1-426.6496 426.6496 426.6496 426.6496 0 0 1-303.9232-726.1184l192.256 117.6064 30.6176 69.5296c-34.7648 28.7232-57.6 72.2944-57.6 118.7328V504.8832a135.168 135.168 0 0 0 270.2848 0v-114.4832c0-46.336-23.0912-90.624-58.3168-119.7568l29.7472-68.5568 202.7008-115.6608zM550.4-128c-282.7264 0-512 229.2736-512 512 0 282.7776 229.2736 512 512 512s512-229.2224 512-512c0-282.7264-229.2736-512-512-512z"  horiz-adv-x="1126" />

    
    <glyph glyph-name="wheat__easyic" unicode="&#59024;" d="M166.387-98.647L152.46 41.29c0 12.833 16.383 1.434 37.067 1.434 20.547 0 37.134 11.4 37.134-1.434l-11.604-136.456c0-29.83-48.671-17.68-48.671-3.481z m-59.593 455.513C4.879 402.943 13.138 475.437 13.138 475.437 0.305 449.84 27.61 226.553 133.894 226.553c47.51-0.068 87.444 78.843-27.1 130.313z m0 157.754C4.879 560.56 13.138 633.054 13.138 633.054 0.305 607.524 27.61 384.171 133.894 384.171c47.51 0 87.444 78.842-27.1 130.449z m0 153.043C4.879 713.4 13.138 786.098 13.138 786.098 0.305 760.5 27.61 537.283 133.894 537.283c47.51 0 87.444 78.638-27.1 130.38z m141.303-441.178c106.215 0 133.452 223.286 120.755 248.884 0 0 8.26-72.495-93.792-118.571-114.407-51.402-74.61-130.313-26.963-130.313z m-141.303-31.264C4.879 241.298 13.138 313.792 13.138 313.792 0.305 288.194 27.61 64.91 133.894 64.91c47.51 0 87.444 78.842-27.1 130.312zM248.097 64.91c106.215 0 133.452 223.285 120.755 248.883 0 0 8.26-72.494-93.792-118.57-114.407-51.47-74.61-130.313-26.963-130.313z m0 319.262c106.215 0 133.452 223.353 120.755 248.883 0 0 8.26-72.494-93.792-118.434-114.407-51.607-74.61-130.45-26.963-130.45z m0 153.112c106.215 0 133.452 223.217 120.755 248.815 0 0 8.26-72.63-93.792-118.367-114.407-51.81-74.61-130.448-26.963-130.448z m-49.695 118.434C311.102 655.717 192.19 896 192.19 896 177.855 873.405 85.7 655.717 198.402 655.717z m304.654-773.136l67.989 118.98c5.392 11.469-14.404 8.328-32.97 16.861-18.841 8.738-28.944 26.008-34.269 14.335l-46.35-132.633c-6.007-12.97 32.971-44.439 45.6-17.543z m92.222 455.65c-72.904 84.713-34.95 146.968-34.95 146.968C537.869 467.45 468.72 253.312 564.9 208.6c43.142-20.069 112.633 34.61 30.377 129.63z m66.487 143.213c-72.904 84.509-34.95 146.764-34.95 146.764-22.458-17.748-91.744-231.818 4.505-276.667 43.21-20 112.633 34.541 30.445 129.903z m64.508 138.64c-73.177 84.373-34.95 146.9-34.95 146.9-22.527-17.748-91.745-231.75 4.573-276.597 43.142-19.933 112.496 34.472 30.377 129.698zM668.66 160.34c96.317-44.575 215.093 146.286 214.274 174.956 0 0-23.004-69.286-134.954-67.99-125.534 1.366-122.53-86.76-79.32-106.966z m-141.371 31.4c-73.04 84.646-35.087 146.833-35.087 146.833-22.39-17.749-91.608-231.819 4.642-276.394 43.278-20.069 112.564 34.473 30.445 129.562z m73.245-177.822c96.25-44.78 215.094 146.286 214.343 174.887 0 0-23.073-69.286-134.954-67.989-125.534 1.297-122.53-86.897-79.39-106.898z m134.545 289.5c96.317-44.712 215.093 146.422 214.274 174.887 0 0-23.004-69.218-134.886-67.989-125.602 1.365-122.598-86.966-79.388-106.898z m64.507 138.913c96.318-44.848 215.026 146.15 214.207 174.82 0 0-23.141-69.492-134.886-67.99-125.534 1.297-122.462-86.897-79.32-106.83z m4.71 128.401c102.189-47.442 95.567 220.487 95.567 220.487-22.458-14.608-197.687-172.977-95.567-220.487z"  horiz-adv-x="1024" />

    
    <glyph glyph-name="tuichu" unicode="&#58888;" d="M1014.619436 410.604395c12.433986-15.579983 12.433986-37.666958 0-53.24594l-170.635809-213.34976a42.639952 42.639952 0 0 0-75.992914 26.62297V298.626521H426.645096a85.354904 85.354904 0 1 0 0 170.709808h341.345617V597.330185a42.639952 42.639952 0 0 0 75.992914 26.622971l170.635809-213.349761zM597.354904 42.708808a85.354904 85.354904 0 1 0 0-170.708808h-426.699521A170.635808 170.635808 0 0 0 0.017575 42.635808V725.326042A170.635808 170.635808 0 0 0 170.654383 895.96185h426.699521a85.354904 85.354904 0 1 0 0-170.635808H256.010287c-47.101947 0-85.354904-37.959957-85.354904-84.695905v-512.639424c0-47.101947 37.959957-85.354904 84.696905-85.354905h342.003616z"  horiz-adv-x="1024" />

    
    <glyph glyph-name="bingchonghai" unicode="&#58957;" d="M814.245161 321.569032h201.496774v66.56H814.245161v139.891613c80.59871 19.984516 167.969032 79.938065 167.969033 226.60129H914.993548c0-159.876129-147.819355-166.647742-167.969032-166.647741h-201.496774v-493.99742h-67.055484V587.974194h-201.496774c-7.283613 0-167.919484 0-167.919484 166.647741H41.884903c0-139.396129 87.320774-199.845161 167.919484-226.60129v-139.230968H8.258065v-66.725161h201.496774v-99.922581a286.439226 286.439226 0 0 1 20.149677-107.189677C149.867355 101.739355 41.835355 41.125161 41.835355-111.483871H109.006452c0 139.396129 108.032 159.876129 154.475354 166.482581A303.269161 303.269161 0 0 1 512-78.12129a293.772387 293.772387 0 0 1 248.567742 133.12c40.794839-7.101935 154.425806-26.590968 154.425806-166.482581h67.220646c0 153.269677-108.015484 213.223226-188.11871 226.436129a276.678194 276.678194 0 0 1 20.149677 107.189677v99.427097zM512 879.483871a237.386323 237.386323 0 0 1-235.074065-233.207742H747.024516A236.890839 236.890839 0 0 1 512 879.483871z m-154.475355-166.482581a169.323355 169.323355 0 0 0 308.851613 0h-308.851613z"  horiz-adv-x="1024" />

    
    <glyph glyph-name="report" unicode="&#58942;" d="M569.6 780.8V896H454.4v-115.2H0v-115.2h57.6v-576H416L192-83.20000000000005l38.4-44.8 275.2 224 275.2-224 38.4 44.8L601.6 96h364.8V672h57.6V780.8H569.6z m339.2-627.2H115.2v512h793.6v-512zM281.6 268.79999999999995V441.6h172.8c0 83.2-70.4 147.2-153.6 147.2-83.2 0-153.6-70.4-153.6-153.6 6.4-83.2 51.2-166.4 134.4-166.4z m57.6-57.6c89.6 0 172.8 89.6 172.8 172.8H339.2v-172.8z m454.4 345.6H627.2v-57.6H800v57.6z m0-115.2H627.2V384H800v57.6z m0-115.2H627.2v-57.6H800v57.6z"  horiz-adv-x="1024" />

    
    <glyph glyph-name="qiti" unicode="&#58908;" d="M1276.626824 313.283765H55.476706C24.816941 313.283765 0 359.062588 0 390.023529c0 31.021176 24.816941 76.739765 55.476706 76.739765h1044.239059a168.839529 168.839529 0 0 0-10.24 56.139294c0 92.943059 95.232 168.357647 187.151059 168.357647 91.979294 0 166.550588-96.015059 166.550588-188.958117s-74.571294-189.018353-166.550588-189.018353z m-534.40753 224.496941H55.536941c-30.72 0-55.536941 45.778824-55.536941 76.739765 0 31.021176 24.816941 76.739765 55.476706 76.739764h509.771294c-6.204235 17.648941-10.24 15.721412-10.24 35.538824 0.060235 92.943059 74.691765 168.357647 166.550588 168.357647 91.979294 0 187.151059-75.414588 187.151059-168.357647 0-93.003294-74.571294-189.018353-166.490353-189.018353zM71.378824 242.266353h856.425411c2.168471 0 4.035765-0.843294 6.204236-0.963765 3.252706 0.240941 6.384941 0.963765 9.637647 0.963765 91.919059 0 187.151059-96.015059 187.151058-188.958118 0-93.003294-95.232-168.417882-187.151058-168.417882-91.919059 0-166.550588 54.814118-166.550589 147.757176 0 19.757176 4.035765 38.490353 10.24 56.139295H71.318588C31.924706 88.786824 0 134.565647 0 165.526588c0 31.021176 31.924706 76.739765 71.378824 76.739765z"  horiz-adv-x="1445" />

    
    <glyph glyph-name="location1" unicode="&#58630;" d="M512.09668625 563.88658219a99.58288406 99.58288406 0 1 0-70.78783313-29.39494782A99.58288406 99.58288406 0 0 0 512.09668625 563.88658219m0 59.98968937a160.17247031 160.17247031 0 1 1 113.38051313-46.79195812A158.97267656 158.97267656 0 0 1 512.09668625 623.8762715600001zM786.84946344 747.45503156a382.13432062 382.13432062 0 0 1-549.50555344 0 404.33050594 404.33050594 0 0 1 0-562.10338875L512.09668625-96l274.75277719 281.35164281a404.33050594 404.33050594 0 0 1 0 562.10338875z m-41.39288532-522.51019406l-233.35989187-239.95875656-233.35989094 239.95875656a342.54112594 342.54112594 0 0 0 0 476.91802969 325.14411562 325.14411562 0 0 0 466.71978282 0 342.54112594 342.54112594 0 0 0 0-476.91802969z"  horiz-adv-x="1024" />

    
    <glyph glyph-name="tree_main_poisonous_gas" unicode="&#59933;" d="M682.666667 128.12800000000004V42.66666699999996a42.666667 42.666667 0 0 0-42.666667-42.666667h-42.666667a42.666667 42.666667 0 0 0-42.666666 42.666667 42.666667 42.666667 0 0 0-85.333334 0 42.666667 42.666667 0 0 0-42.666666-42.666667H384a42.666667 42.666667 0 0 0-42.666667 42.666667v85.333333 0.128C239.317333 183.46666700000003 170.666667 286.890667 170.666667 405.333333 170.666667 582.058667 323.498667 725.333333 512 725.333333s341.333333-143.274667 341.333333-320c0-118.442667-68.650667-221.866667-170.666666-277.205333zM512 277.33333300000004c-21.333333 0-42.666667-35.541333-64-106.666666h128c-21.333333 71.125333-42.666667 106.666667-64 106.666666zM341.333333 298.66666699999996c46.933333 0 85.333333 48 85.333334 106.666666S388.266667 512 341.333333 512s-85.333333-48-85.333333-106.666667 38.4-106.666667 85.333333-106.666666z m256 106.666666c0-58.666667 38.4-106.666667 85.333334-106.666666s85.333333 48 85.333333 106.666666S729.6 512 682.666667 512s-85.333333-48-85.333334-106.666667z"  horiz-adv-x="1024" />

    
    <glyph glyph-name="qiti1" unicode="&#59098;" d="M568.9 833.6s-173.7-186.7 3.4-491.1c170.4-315-82.3-406.2-82.3-406.2s78.8 162.4-53.2 351.1C284.8 504.9 568.9 833.6 568.9 833.6z m-261.2 0s-181.5-186.7 3.6-491.1c178.1-315-86-406.2-86-406.2s82.4 162.4-55.6 351.1c-159 217.5 138 546.2 138 546.2z m527.7 0S653.9 646.9 839 342.5c178.1-315-86-406.2-86-406.2s82.4 162.4-55.6 351.1c-159 217.5 138 546.2 138 546.2z"  horiz-adv-x="1024" />

    
    <glyph glyph-name="yujianjilu" unicode="&#58901;" d="M860 405c0 203.793-165.207 369-369 369S122 608.793 122 405s165.207-369 369-369 369 165.207 369 369z m-14.531-291.625l10.519-10.518 118.128-117.462 17.856-17.856c17.574-17.573 17.574-46.066 0-63.64-17.573-17.573-46.066-17.573-63.64 0l-17.72 17.722-118.129 117.461-10.732 10.732C702.587-15.066 601.341-54 491-54 237.5-54 32 151.5 32 405S237.5 864 491 864s459-205.5 459-459c0-110.747-39.221-212.332-104.531-291.625zM255.004 553.29v-52.537h57.219C297.658 441.972 274.25 389.435 242 343.66l23.408-60.34c18.726 33.291 34.851 69.703 48.375 108.196v-221.592h53.578V423.766c8.843-15.605 19.246-34.85 30.69-56.698l30.69 46.295c-20.287 24.448-40.573 46.815-61.38 67.622v19.767h47.335v52.537h-47.335V649h-53.578v-95.711h-58.779zM487 480.985v-27.049h162.293v26.009c15.605-15.085 32.77-29.65 52.537-43.174L732 482.546C665.418 529.88 618.603 585.019 591.554 647.96h-49.936c-32.25-68.143-78.026-123.28-137.325-165.414l29.65-45.775c18.206 12.484 35.891 27.569 53.057 44.214z m139.406 22.888h-118.6c21.328 26.008 41.094 56.178 58.78 90.51 15.085-32.251 34.851-62.421 59.82-90.51z m-210.15-269.969v-52.537h302.74v52.537h-71.264c18.727 54.098 34.852 115.478 48.376 184.14l-51.497 13.005c-14.564-77.505-31.21-143.047-50.456-197.145H416.257zM487 417.004L440.185 401.4c13.524-47.335 25.488-96.751 34.851-148.248l47.336 12.484C511.968 322.854 500.524 373.31 487 417.005z m76.985 18.726l-46.295-15.605c12.484-45.775 22.887-93.11 31.21-143.046l49.416 13.004c-10.403 54.618-21.847 102.993-34.33 145.647z"  horiz-adv-x="1024" />

    
    <glyph glyph-name="queren" unicode="&#58904;" d="M172.8 691.2h57.6v57.6h-57.6v-57.6z m89.6-345.6h403.2v57.6H262.4v-57.6z m-89.6-172.8h57.6v57.6h-57.6v-57.6z m0 172.8h57.6v57.6h-57.6v-57.6z m0 172.8h57.6V576h-57.6v-57.6z m89.6 0h403.2V576H262.4v-57.6z m0 172.8h403.2v57.6H262.4v-57.6z m576-441.6v544C838.4 857.6 780.8 896 716.8 896h-608C44.8 896 0 857.6 0 793.6V64c0-64 44.8-121.6 108.8-121.6h448c38.4-32 96-70.4 153.6-70.4 115.2 0 211.2 96 211.2 211.2 0 64-25.6 128-83.2 166.4z m-576-19.2v-57.6h268.8c-12.8-25.6-19.2-57.6-19.2-89.6 0-25.6 6.4-51.2 12.8-83.2h-416c-32 0-51.2 32-51.2 64V793.6c0 32 19.2 44.8 51.2 44.8h608c32 0 64-12.8 64-44.8v-512c-32 6.4-44.8 12.8-64 12.8-57.6 0-108.8-25.6-147.2-64H262.4z m403.2-256l-96 121.6 38.4 32 64-83.2 166.4 140.8 32-38.4-204.8-172.8z"  horiz-adv-x="1024" />

    
    <glyph glyph-name="danqi" unicode="&#58945;" d="M512.0043 705.28a416.64 416.64 0 1 1 416.64-416.64 417.28 417.28 0 0 1-416.64 416.64z m0-758.4a341.76 341.76 0 1 0 341.76 341.76 342.4 342.4 0 0 0-341.76-341.76z m-512 720a112 112 0 1 0 58.24-97.28 112 112 0 0 0-56.32 97.28z m798.72 26.24a85.76 85.76 0 1 0 87.68-85.76 85.76 85.76 0 0 0-85.76 85.76z m159.36 149.12a53.76 53.76 0 1 0 53.76-53.76 53.76 53.76 0 0 0-51.84 53.76z m-675.84-21.12a42.24 42.24 0 1 0 42.24-42.24 42.24 42.24 0 0 0-42.24 42.24z m-12.16-366.72v-277.12h80.64V326.4l106.88-149.12h80.64V454.4h-80.64v-153.6l-107.52 153.6z m398.08-256c3.84 3.2 12.16 10.24 23.68 18.56a156.8 156.8 0 0 1 41.6 39.68 69.12 69.12 0 0 1 11.52 37.12 58.24 58.24 0 0 1-9.6 33.28 58.88 58.88 0 0 1-27.52 21.76 131.84 131.84 0 0 1-48.64 7.04 118.4 118.4 0 0 1-46.72-7.68 58.24 58.24 0 0 1-26.88-21.76 94.08 94.08 0 0 1-12.8-39.04l58.88-5.12a43.52 43.52 0 0 0 9.6 24.96 27.52 27.52 0 0 0 36.48 0 22.4 22.4 0 0 0 7.04-16.64 32.64 32.64 0 0 0-7.04-19.2 174.08 174.08 0 0 0-33.28-29.44 256 256 0 0 1-58.24-51.84 393.6 393.6 0 0 1-18.56-46.72h161.92v37.12h-76.8c7.04 0 11.52 12.8 15.36 17.92zM512.0043 705.28a416.64 416.64 0 1 1 416.64-416.64 417.28 417.28 0 0 1-416.64 416.64z m0-758.4a341.76 341.76 0 1 0 341.76 341.76 342.4 342.4 0 0 0-341.76-341.76z m-512 720a112 112 0 1 0 58.24-97.28 112 112 0 0 0-56.32 97.28z m798.72 26.24a85.76 85.76 0 1 0 87.68-85.76 85.76 85.76 0 0 0-85.76 85.76z m159.36 149.12a53.76 53.76 0 1 0 53.76-53.76 53.76 53.76 0 0 0-51.84 53.76z m-675.84-21.12a42.24 42.24 0 1 0 42.24-42.24 42.24 42.24 0 0 0-42.24 42.24z m-12.16-366.72v-277.12h80.64V326.4l106.88-149.12h80.64V454.4h-80.64v-153.6l-107.52 153.6z m398.08-256c3.84 3.2 12.16 10.24 23.68 18.56a156.8 156.8 0 0 1 41.6 39.68 69.12 69.12 0 0 1 11.52 37.12 58.24 58.24 0 0 1-9.6 33.28 58.88 58.88 0 0 1-27.52 21.76 131.84 131.84 0 0 1-48.64 7.04 118.4 118.4 0 0 1-46.72-7.68 58.24 58.24 0 0 1-26.88-21.76 94.08 94.08 0 0 1-12.8-39.04l58.88-5.12a43.52 43.52 0 0 0 9.6 24.96 27.52 27.52 0 0 0 36.48 0 22.4 22.4 0 0 0 7.04-16.64 32.64 32.64 0 0 0-7.04-19.2 174.08 174.08 0 0 0-33.28-29.44 256 256 0 0 1-58.24-51.84 393.6 393.6 0 0 1-18.56-46.72h161.92v37.12h-76.8c7.04 0 11.52 12.8 15.36 17.92z"  horiz-adv-x="1067" />

    
    <glyph glyph-name="cunchu" unicode="&#59055;" d="M192 448h640V704H192v-256z m768 384v-896H64V832h896zM192 320v-256h640V320H192z m448 320h128v-128h-128V640z m0-384h128v-128h-128v128z"  horiz-adv-x="1024" />

    
    <glyph glyph-name="rpt" unicode="&#58625;" d="M225.3 288h-83c-27.7 0-44.3-22.1-44.3-44.3v-182.6c0-27.7 16.6-49.8 44.3-49.8h83c22.1 0 38.7 22.1 38.7 44.3V243.79999999999995c0 22.1-16.6 44.2-38.7 44.2z m-16.6-204.7c0-11.1-11.1-16.6-27.7-16.6s-27.7 5.5-27.7 16.6V216.10000000000002c0 11.1 11.1 16.6 27.7 16.6s27.7-5.5 27.7-16.6v-132.8z m237.9 370.8h-83c-27.7 0-44.3-22.1-44.3-44.3v-348.6c0-27.7 16.6-49.8 44.3-49.8h83c22.1 0 44.3 22.1 44.3 44.3V409.8c-5.6 22.1-22.2 44.3-44.3 44.3zM430 83.29999999999995c0-11.1-11.1-16.6-27.7-16.6s-27.7 5.5-27.7 16.6V382.1c0 11.1 11.1 16.6 27.7 16.6s27.7-5.5 27.7-16.6v-298.8z m453.7 426.1h-83c-27.7 0-44.3-22.1-44.3-44.3v-403.9c0-27.7 16.6-49.8 44.3-49.8h83c22.1 0 44.3 22.1 44.3 44.3V465.1c-5.5 22.1-22.1 44.3-44.3 44.3z m-16.6-426.1c0-11.1-11.1-16.6-27.7-16.6s-27.7 5.5-27.7 16.6V437.5c0 11.1 11.1 16.6 27.7 16.6s27.7-5.5 27.7-16.6v-354.2zM667.9 343.4h-83c-27.7 0-44.3-22.1-44.3-44.3v-237.9c0-27.7 16.6-49.8 44.3-49.8h83c22.1 0 38.7 22.1 38.7 44.3V299.1c0.1 22.2-16.5 44.3-38.7 44.3z m-16.6-260.1c0-11.1-11.1-16.6-27.7-16.6s-27.7 5.5-27.7 16.6V271.5c0 11.1 11.1 16.6 27.7 16.6s27.7-5.5 27.7-16.6v-188.2z m-498 249l249 215.8 177.1-121.7c16.6-22.1 38.7-5.5 38.7 0l254.5 271.1v-49.8c0-16.6 11.1-27.7 27.7-27.7s27.7 11.1 27.7 27.7V758.4c0 16.6-11.1 27.7-27.7 27.7H789.7c-16.6 0-27.7-11.1-27.7-27.7s11.1-27.7 27.7-27.7h38.7L596 487.2 418.9 609c-11.1 11.1-27.7 11.1-38.7 0L114.6 376.6c-11.1-11.1-11.1-33.2 0-44.3 11.1-5.5 27.7-5.5 38.7 0z m0 0"  horiz-adv-x="1024" />

    


  </font>
</defs>
</svg>
